<?xml version="1.0" encoding="UTF-8" standalone="no"?>
<!-- Creator: CorelDRAW X8 -->

<svg
   xml:space="preserve"
   width="157.81715mm"
   height="24.718302mm"
   version="1.1"
   style="clip-rule:evenodd;fill-rule:evenodd;image-rendering:optimizeQuality;shape-rendering:geometricPrecision;text-rendering:geometricPrecision"
   viewBox="0 0 15781.715 2471.8302"
   id="svg2135"
   sodipodi:docname="tempo-prestiti-blu.svg"
   inkscape:version="1.2 (dc2aedaf03, 2022-05-15)"
   xmlns:inkscape="http://www.inkscape.org/namespaces/inkscape"
   xmlns:sodipodi="http://sodipodi.sourceforge.net/DTD/sodipodi-0.dtd"
   xmlns="http://www.w3.org/2000/svg"
   xmlns:svg="http://www.w3.org/2000/svg"><sodipodi:namedview
   id="namedview92"
   pagecolor="#ffffff"
   bordercolor="#000000"
   borderopacity="0.25"
   inkscape:showpageshadow="2"
   inkscape:pageopacity="0.0"
   inkscape:pagecheckerboard="0"
   inkscape:deskcolor="#d1d1d1"
   inkscape:document-units="mm"
   showgrid="false"
   inkscape:zoom="2.0922947"
   inkscape:cx="646.41946"
   inkscape:cy="47.31647"
   inkscape:window-width="1920"
   inkscape:window-height="1057"
   inkscape:window-x="-8"
   inkscape:window-y="-8"
   inkscape:window-maximized="1"
   inkscape:current-layer="Livello_x0020_1" />
 <defs
   id="defs632"><font
     id="FontID1"
     horiz-adv-x="688"
     font-variant="normal"
     style="fill-rule:nonzero"
     font-style="normal"
     font-weight="700"
     horiz-origin-x="0"
     horiz-origin-y="0"
     vert-origin-x="512"
     vert-origin-y="768"
     vert-adv-y="1024">
	<font-face
   font-family="Tw Cen MT"
   id="font-face545">
		<font-face-src>
			<font-face-name
   name="Tw Cen MT Bold" />
		</font-face-src>
	</font-face>
   <missing-glyph
   id="missing-glyph549"><path
     d="M0 0z"
     id="path547" /></missing-glyph>
   <glyph
   unicode="f"
   horiz-adv-x="312"
   d="M291.006 636.005l0 -120.004c-18.8402,12.6684 -35.1665,18.9956 -48.8377,18.9956 -17.668,0 -31.8335,-6.32715 -42.8354,-18.9956 -10.8324,-12.6684 -16.3404,-28.9947 -16.3404,-49.1625l0 -46.8322 108.013 0 0 -114.002 -108.013 0 0 -306.005 -124.989 0 0 306.005 -37.0025 0 0 114.002 37.0025 0 0 51.3233c0,71.3358 14.9987,119.51 45.1657,144.832 30.1669,25.1674 65.5029,37.8358 106.163,37.8358 32.0029,0 59.3311,-6.00232 81.6739,-17.9928z"
   id="glyph551" />
   <glyph
   unicode="c"
   horiz-adv-x="403"
   d="M363.995 145.002l0 -125.004c-42.9907,-19.3345 -78.6656,-28.9947 -106.997,-28.9947 -63.328,0 -115.993,20.8316 -158.504,62.4947 -42.3269,41.6631 -63.4974,93.8339 -63.4974,156.329 0,62.6783 19.6735,114.835 58.8368,156.173 39.1633,41.3383 88.8343,62.0004 149.168,62.0004 42.0021,0 82.6625,-9.6602 121.995,-28.9947l0 -118.013c-36.3246,17.3432 -69.6692,26.0006 -99.8362,26.0006 -27.992,0 -50.4901,-8.48798 -67.4943,-25.6617 -17.1737,-17.0042 -25.6617,-39.6718 -25.6617,-67.4943 0,-27.6671 8.48798,-50.1652 25.3227,-67.1694 17.0042,-17.1737 39.3328,-25.6617 67,-25.6617 25.012,0 58.3425,7.99367 99.6667,23.9951z"
   id="glyph553" />
   <glyph
   unicode="t"
   horiz-adv-x="259"
   d="M59.0063 564.006l124.989 0 0 -143.999 60.009 0 0 -115.004 -60.009 0 0 -305.002 -124.989 0 0 305.002 -48.0044 0 0 115.004 48.0044 0 0 143.999z"
   id="glyph555" />
   <glyph
   unicode="n"
   horiz-adv-x="530"
   d="M193.995 420.007l0 -49.8404c42.6659,39.8271 87.5067,59.8396 134.339,59.8396 39.9966,0 73.1718,-16.5099 99.3277,-49.3461 26.1701,-32.8221 39.3328,-74.8242 39.3328,-125.823l0 -254.837 -126.995 0 0 234.994c0,24.1787 -6.6661,44.5019 -19.8288,61.1671 -13.1768,16.5099 -29.1642,24.8425 -48.0044,24.8425 -22.837,0 -41.4937,-10.5076 -56.1676,-31.5086 -14.6598,-21.001 -22.0038,-48.1598 -22.0038,-81.3349l0 -208.16 -124.989 0 0 420.007 124.989 0z"
   id="glyph557" />
   <glyph
   unicode="v"
   horiz-adv-x="530"
   d="M17.0042 420.007l131.994 0 115.499 -246.01 114.341 246.01 131.161 0 -195.167 -420.007 -100.669 0 -197.158 420.007z"
   id="glyph559" />
   <glyph
   unicode="e"
   horiz-adv-x="478"
   d="M450.004 179.999l-299 0c1.66653,-27.0034 10.4935,-48.8377 26.6644,-65.6724 16.0015,-16.8206 34.8276,-25.3227 56.337,-25.3227 38.3301,0 68.497,17.329 90.3313,52.0012l114.665 -38.1747c-42.6659,-74.4993 -108.833,-111.827 -198.67,-111.827 -66.1667,0 -118.662,19.9983 -157.67,59.9949 -39.1633,40.1661 -58.6673,94.0033 -58.6673,161.667 0,60.8282 20.5067,111.996 61.6756,153.334 41.1688,41.3383 91.8284,62.0004 151.993,62.0004 60.5033,0 111.163,-21.6648 151.668,-65.164 40.505,-43.4991 60.6728,-97.6753 60.6728,-162.839l0 -19.9983zm-299 84.0042l170 0c-11.8352,52.665 -38.8385,78.9905 -81.0101,78.9905 -24.3341,0 -44.3324,-6.82146 -60.3339,-20.6621 -15.832,-13.6712 -25.3227,-33.161 -28.6558,-58.3284z"
   id="glyph561" />
   <glyph
   unicode="s"
   horiz-adv-x="426"
   d="M368.006 360.662l-85.0069 -51.6623c-24.5036,24.6731 -47.496,37.0025 -68.6665,37.0025 -10.4935,0 -19.504,-2.83874 -27.0034,-8.67158 -7.49936,-5.83284 -11.3267,-12.9932 -11.3267,-21.3259 0,-13.5017 4.33579,-23.3314 13.1627,-29.5031 8.84106,-6.17179 32.0029,-15.6625 69.6692,-28.6699 37.4968,-13.1627 67,-29.828 88.6648,-49.9958 21.6648,-20.1678 32.4972,-48.1739 32.4972,-84.0042 0,-36.1693 -16.3263,-67.1694 -48.8235,-93.0006 -32.5114,-25.8311 -71.6747,-38.8244 -117.179,-38.8244 -31.0002,0 -61.8309,8.65746 -92.6616,25.8311 -30.6612,17.329 -56.8313,43.6686 -78.3267,79.16l100.994 45.9989c22.837,-39.3328 46.5074,-58.9922 70.9968,-58.9922 11.0019,0 21.001,3.50253 29.8421,10.6629 8.82694,7.16041 13.1627,15.1682 13.1627,24.3341 0,11.6657 -4.99958,20.4926 -15.1682,26.4949 -10.1686,6.00232 -17.668,9.01054 -22.4981,9.01054 -2.00548,2.33031 -13.6712,6.82146 -35.1665,13.8265 -84.1737,27.3282 -126.162,71.8301 -126.162,133.336 0,37.0025 14.9987,67.3248 45.1657,90.9951 30.1669,23.5008 69.3303,35.336 117.829,35.336 53.6678,0 102.336,-22.4981 146.005,-67.3389z"
   id="glyph563" />
   <glyph
   unicode="p"
   horiz-adv-x="530"
   d="M187.004 420.007l0 -61.0118 1.99136 0c18.1764,24.0093 37.172,41.5078 56.8313,52.5097 19.6735,11.0019 43.3438,16.4958 71.0109,16.4958 50.1652,0 92.8311,-22.0038 128.167,-65.8278 35.3219,-44.0076 52.9899,-97.3364 52.9899,-160.17 0,-57.6646 -17.1596,-106.997 -51.4928,-148.165 -34.3332,-41.1688 -75.1631,-61.8309 -122.334,-61.8309 -28.8394,0 -53.1735,5.98819 -72.6633,18.1623 -19.504,12.0046 -39.6718,31.325 -60.5033,57.8341l-2.00548 0 0 -253.001 -126.995 0 0 605.005 125.004 0zm179.999 -217.001c0,27.3282 -8.84106,50.829 -26.3396,70.4884 -17.4985,19.6735 -38.4996,29.5031 -62.8337,29.5031 -24.1646,0 -44.5019,-9.6602 -61.492,-28.9947 -16.8347,-19.3345 -25.3368,-43.0048 -25.3368,-70.9968 0,-27.0034 8.82694,-50.0099 26.4949,-69.1749 17.8375,-19.165 39.3328,-28.8252 64.6697,-28.8252 24.6731,0 44.9962,9.16589 60.9977,27.3282 15.832,18.1623 23.8398,41.8326 23.8398,70.672z"
   id="glyph565" />
   <glyph
   unicode="m"
   horiz-adv-x="791"
   d="M192.006 419.998l0 -65.9978c5.82221,3.83074 14.4985,11.1624 25.8258,22.1599 11.34,10.8453 22.1726,20.0036 32.8403,27.6777 10.4901,7.49658 23.162,13.4964 37.8254,18.1643 14.8409,4.66792 28.1724,7.00188 40.172,7.00188 19.1664,0 39.8295,-6.83698 62.167,-20.3334 22.5024,-13.674 40.9965,-37.838 56.0023,-72.5049 25.9907,33.335 51.4993,57.1693 76.323,71.5029 25.0013,14.1687 48.176,21.3354 69.6763,21.3354 37.9903,0 70.3232,-15.6654 96.6563,-47.1739 26.3331,-31.3309 39.4997,-69.9934 39.4997,-115.835l0 -265.995 -124.994 0 0 232.166c0,23.162 -6.3296,42.506 -19.0015,58.1714 -12.6719,15.8303 -27.9948,23.6694 -45.9942,23.6694 -21.3354,0 -40.0071,-9.00604 -55.5076,-26.8405 -15.6654,-17.8345 -23.4918,-39.005 -23.4918,-63.6638l0 -223.502 -124.004 0 0 227.003c0,24.4939 -6.3296,45.1697 -19.1664,61.8245 -12.6719,16.8451 -28.1724,25.1789 -46.3367,25.1789 -21.3354,0 -39.6646,-9.17094 -55.1652,-27.6777 -15.5005,-18.3292 -23.3269,-40.3242 -23.3269,-66.1627l0 -220.166 -127.011 0 0 419.998 127.011 0z"
   id="glyph567" />
   <glyph
   unicode="u"
   horiz-adv-x="530"
   d="M58.9959 419.998l126.998 0 0 -202.002c0,-29.1618 7.34436,-53.3259 22.0077,-72.8347 14.8283,-19.4962 32.9925,-29.1618 54.4929,-29.1618 23.0098,0 42.3411,9.33584 58.0065,28.1724 15.6654,18.8239 23.5045,42.4933 23.5045,70.8306l0 204.995 126.998 0 0 -244.837c0,-51.994 -19.6738,-95.4894 -59.1735,-130.499 -39.4997,-35.1616 -88.5002,-52.6663 -147.331,-52.6663 -62.3319,0 -112.17,17.6696 -149.5,52.8312 -37.3307,35.3392 -56.0023,82.1706 -56.0023,140.672l0 234.499z"
   id="glyph569" />
   <glyph
   unicode="d"
   horiz-adv-x="530"
   d="M338.997 652.007l126.006 0 0 -652.007 -122.998 0 0 71.9995 -2.00548 0c-36.4941,-52.665 -81.8292,-79.0046 -136.161,-79.0046 -48.3434,0 -89.5122,21.001 -123.676,63.0031 -34.1638,42.0021 -51.168,93.1701 -51.168,153.829 0,60.5033 17.668,112.18 52.8345,155.001 35.336,42.8354 77.677,64.1754 126.84,64.1754 28.1615,0 51.8318,-5.16905 70.9968,-15.3377 19.3345,-10.1686 39.1633,-26.6644 59.3311,-49.6709l0 288.012zm-93.0006 -347.004c-20.6621,0 -39.9966,-9.50484 -57.9894,-28.3309 -18.0069,-18.8402 -27.0034,-44.3324 -27.0034,-76.5048 0,-25.6617 7.99367,-47.6655 23.8257,-65.8278 15.832,-18.1764 35.1665,-27.3423 57.8341,-27.3423 26.8339,0 49.332,9.8438 67.3389,29.5031 17.9928,19.6735 27.0034,44.1629 27.0034,73.3271 0,25.5063 -8.84106,47.6796 -26.3396,66.6751 -17.4985,18.9956 -38.9939,28.5004 -64.6697,28.5004z"
   id="glyph571" />
   <glyph
   unicode=" "
   horiz-adv-x="266"
   d=""
   id="glyph573" />
   <glyph
   unicode="a"
   horiz-adv-x="527"
   d="M337.005 0l0 71.9995 -2.00548 0c-19.504,-28.1615 -38.9939,-48.4987 -58.8368,-61.1671 -19.8288,-12.4989 -44.3324,-18.8261 -73.4966,-18.8261 -48.993,0 -90.6703,21.1564 -125.004,63.4974 -34.5027,42.3269 -51.6623,93.6644 -51.6623,154.323 0,59.8396 18.3318,111.177 54.9953,154.012 36.6777,42.8212 80.1768,64.1612 130.497,64.1612 24.0093,0 45.5046,-5.33853 64.6697,-15.832 19.165,-10.5076 39.5023,-27.1728 60.8423,-50.1652l0 58.0036 124.989 0 0 -420.007 -124.989 0zm-91.5035 302.997c-24.6731,0 -45.1657,-9.82968 -61.6614,-29.5031 -16.5099,-19.6594 -24.8425,-44.4878 -24.8425,-74.3299 0,-27.992 7.83832,-50.5042 23.5008,-67.4943 15.832,-17.1737 36.5082,-25.6758 62.0004,-25.6758 24.6731,0 45.8294,9.8438 63.328,29.5031 17.5126,19.6735 26.1701,43.4991 26.1701,71.5052 0,26.0006 -8.65746,48.4987 -26.1701,67.4943 -17.4985,19.0097 -38.3301,28.5004 -62.3252,28.5004z"
   id="glyph575" />
   <glyph
   unicode="r"
   horiz-adv-x="312"
   d="M177.993 420.007l0 -62.0004 2.00548 0c12.3295,20.8316 26.8339,37.4968 43.3297,49.6568 16.3404,12.1741 31.6781,18.3318 45.6741,18.3318 8.5021,0 16.1709,-0.663786 22.9924,-1.99136l0 -137.008c-10.4935,2.00548 -20.6621,3.00822 -30.8307,3.00822 -25.6617,0 -45.66,-9.01054 -59.8254,-27.1728 -14.1655,-17.9928 -21.34,-43.3297 -21.34,-75.8269l0 -187.004 -126.995 0 0 420.007 124.989 0z"
   id="glyph577" />
   <glyph
   unicode="o"
   horiz-adv-x="530"
   d="M48.993 208.838c0,64.6555 20.6762,117.66 61.845,158.659 41.3242,40.9994 94.1587,61.5061 158.828,61.5061 59.9949,0 110.499,-20.8316 151.174,-62.6642 40.8299,-41.8326 61.153,-93.6785 61.153,-155.679 0,-63.1585 -20.3231,-115.499 -61.153,-157.162 -40.6745,-41.6631 -91.8425,-62.4947 -153.179,-62.4947 -69.1608,0 -122.829,21.9897 -161.159,66.1667 -38.3301,44.1629 -57.5093,94.6671 -57.5093,151.668zm310.002 0.155354c0,28.3451 -9.16589,53.1735 -27.6671,74.344 -18.5013,21.1564 -39.9966,31.664 -64.6555,31.664 -25.5063,0 -47.5101,-9.99915 -66.0114,-29.828 -18.5013,-19.843 -27.6671,-43.5133 -27.6671,-71.3358 0,-30.1669 9.16589,-55.9981 27.5118,-77.1686 18.1623,-21.1705 40.3214,-31.664 66.1667,-31.664 24.6589,0 46.1543,10.324 64.6555,31.0002 18.5013,20.6621 27.6671,44.9962 27.6671,72.9882z"
   id="glyph579" />
   <glyph
   unicode="l"
   horiz-adv-x="259"
   d="M64.9945 652.007l125.004 0 0 -652.007 -125.004 0 0 652.007z"
   id="glyph581" />
   <glyph
   unicode="i"
   horiz-adv-x="259"
   d="M48.993 575.333c0,21.1705 7.66884,39.3328 22.837,54.6705 15.3377,15.3236 33.6695,22.9924 55.1648,22.9924 21.5095,0 39.8413,-7.66884 55.1648,-22.9924 15.1682,-15.3377 22.837,-33.5 22.837,-54.6705 0,-21.6648 -7.66884,-39.9966 -22.837,-55.3343 -15.3236,-15.3377 -33.6553,-22.9924 -55.1648,-22.9924 -21.4954,0 -39.8271,7.65472 -55.1648,22.9924 -15.1682,15.3377 -22.837,33.6695 -22.837,55.3343zm16.0015 -155.326l125.004 0 0 -420.007 -125.004 0 0 420.007z"
   id="glyph583" />
  </font><font
     id="FontID0"
     horiz-adv-x="777"
     font-variant="normal"
     style="fill-rule:nonzero"
     font-style="normal"
     font-weight="900"
     horiz-origin-x="0"
     horiz-origin-y="0"
     vert-origin-x="512"
     vert-origin-y="768"
     vert-adv-y="1024">
	<font-face
   font-family="Arial Black"
   id="font-face586">
		<font-face-src>
			<font-face-name
   name="Arial Black" />
		</font-face-src>
	</font-face>
   <missing-glyph
   id="missing-glyph590"><path
     d="M0 0z"
     id="path588" /></missing-glyph>
   <glyph
   unicode="t"
   horiz-adv-x="443"
   d="M299.999 715.998l0 -196.996 109.003 0 0 -146.004 -109.003 0 0 -183.666c0,-21.9969 2.16808,-36.6633 6.33234,-43.8329 6.50424,-11.0012 18.0045,-16.5018 34.3344,-16.5018 14.6664,0 35.1661,4.16981 61.6655,12.6702l14.6664 -137.504c-49.1616,-10.8293 -94.9962,-16.1636 -137.665,-16.1636 -49.4998,0 -85.9968,6.33234 -109.502,18.997 -23.3332,12.6702 -40.6667,32 -51.9951,57.8339 -11.1675,25.834 -16.8345,67.837 -16.8345,125.671l0 182.496 -72.9994 0 0 146.004 72.9994 0 0 95.1626 198.997 101.833z"
   id="glyph592" />
   <glyph
   unicode="n"
   horiz-adv-x="667"
   d="M59.9982 519l185.337 0 0 -84.4976c27.6645,34.6683 55.4951,59.3338 83.8332,74.1626 28.3289,14.8381 62.6649,22.3309 103.331,22.3309 54.9968,0 97.8315,-16.3329 129.002,-49.1649 30.9957,-32.6659 46.4981,-83.3349 46.4981,-151.832l0 -329.999 -200 0 0 285.503c0,32.6659 -5.99797,55.6612 -18.0031,69.1612 -11.9959,13.5 -28.8272,20.3377 -50.4937,20.3377 -23.835,0 -43.333,-9.17228 -58.1711,-27.3323 -14.8288,-18.3353 -22.3309,-51.0012 -22.3309,-98.339l0 -249.331 -199.003 0 0 519z"
   id="glyph594" />
   <glyph
   unicode="v"
   horiz-adv-x="610"
   d="M0.996586 519l206.838 0 100.664 -328.836 104.005 328.836 200.498 0 -220.006 -519 -176.331 0 -215.669 519z"
   id="glyph596" />
   <glyph
   unicode="C"
   horiz-adv-x="777"
   d="M550.005 292.996l193.993 -58.494c-13.0018,-54.3324 -33.4964,-99.8339 -61.6684,-136.172 -27.9967,-36.4953 -62.6649,-63.9937 -104.328,-82.4952 -41.4967,-18.5014 -94.3342,-27.8306 -158.503,-27.8306 -78.0013,0 -141.497,11.3315 -190.994,33.8286 -49.3402,22.6631 -91.8335,62.4988 -127.674,119.332 -35.8309,56.8331 -53.8341,129.833 -53.8341,218.501 0,118.335 31.5032,209.338 94.5003,273 63.1725,63.5047 152.339,95.3308 267.666,95.3308 90.1726,0 161.17,-18.16 212.836,-54.6646 51.4995,-36.4953 89.9972,-92.4979 115.004,-168.165l-194.999 -43.1669c-6.83769,21.6665 -14.0076,37.5012 -21.5004,47.5039 -12.5035,16.8312 -27.6737,29.833 -45.5015,38.8299 -18.0031,9.16305 -37.9994,13.6661 -60.1735,13.6661 -50.3276,0 -88.8253,-20.1716 -115.493,-60.3303 -20.1716,-29.833 -30.3313,-76.8386 -30.3313,-140.666 0,-79.3393 11.9959,-133.506 36.1631,-163.006 24.1672,-29.3347 57.9958,-43.9974 101.67,-43.9974 42.3272,0 74.3287,11.8298 95.9952,35.6649 21.6665,23.6689 37.3351,58.1711 47.1717,103.331z"
   id="glyph598" />
   <glyph
   unicode="e"
   horiz-adv-x="666"
   d="M636.001 209.999l-398.999 0c3.66522,-31.8336 12.1656,-55.6658 25.9948,-71.3303 19.1689,-22.5014 44.3375,-33.669 75.3338,-33.669 19.668,0 38.3378,4.8352 55.8377,14.5001 10.8293,6.16599 22.4959,17.0008 34.8334,32.499l195.998 -17.9989c-29.9982,-52.0006 -66.168,-89.5012 -108.498,-111.997 -42.3358,-22.6678 -103.169,-34.0017 -182.335,-34.0017 -68.8351,0 -122.832,9.66486 -162.334,29.1665 -39.3304,19.3353 -72.0013,50.1652 -98.0016,92.3346 -25.8284,42.3302 -38.8313,91.9964 -38.8313,148.999 0,81.1671 26.0003,146.997 78.0009,197.168 51.8343,50.1652 123.664,75.3338 215.167,75.3338 74.3302,0 132.835,-11.3339 175.831,-33.8353 43.0012,-22.5014 75.8329,-55.0004 98.3343,-97.8352 22.5014,-42.6629 33.669,-98.3287 33.669,-166.831l0 -22.5014zm-202.003 95.0018c-3.83157,38.665 -14.3337,66.3343 -31.1627,82.9969 -16.8345,16.6681 -38.8369,25.0022 -66.3343,25.0022 -31.6673,0 -57.0022,-12.6647 -75.9992,-37.8333 -12.0048,-15.6645 -19.668,-38.9977 -23.0005,-70.1659l196.497 0z"
   id="glyph600" />
   <glyph
   unicode="T"
   horiz-adv-x="722"
   d="M23.0005 715.998l672.997 0 0 -177.001 -225.996 0 0 -538.998 -221 0 0 538.998 -226.001 0 0 177.001z"
   id="glyph602" />
   <glyph
   unicode="s"
   horiz-adv-x="610"
   d="M25.0022 144.003l196.996 17.9989c8.16772,-23.3332 19.5016,-40.0013 34.168,-49.9989 14.6664,-10.0031 34.168,-15.0047 58.6657,-15.0047 26.6657,0 47.3373,5.66695 62.0037,17.1672 11.5002,8.33407 17.1672,19.0026 17.1672,31.6673 0,14.3337 -7.50233,25.5013 -22.5014,33.3363 -10.6685,5.5006 -39.1696,12.332 -85.3369,20.4997 -68.9959,11.9993 -116.832,23.1668 -143.831,33.4971 -26.8321,10.1695 -49.3335,27.6693 -67.8315,52.0006 -18.3372,24.5032 -27.503,52.3333 -27.503,83.6679 0,34.168 9.83676,63.6672 29.6655,88.3312 19.8343,24.8359 47.171,43.3339 82.0044,55.4995 34.8334,12.1712 81.4998,18.3372 139.999,18.3372 61.6655,0 107.334,-4.66886 136.667,-14.1674 29.4992,-9.49851 53.9968,-24.1705 73.6648,-43.9992 19.668,-20.0007 35.9979,-46.8327 49.0008,-80.8344l-188.002 -17.9989c-4.82966,16.4963 -12.9974,28.6674 -24.3313,36.4969 -15.4982,10.3358 -34.3344,15.5037 -56.5031,15.5037 -22.3295,0 -38.665,-4.00346 -48.8289,-12.0048 -10.1695,-7.99583 -15.3374,-17.6662 -15.3374,-29.0001 0,-12.831 6.50424,-22.3295 19.3353,-28.8282 12.831,-6.67059 41.1658,-12.5039 84.666,-17.6718 66.168,-7.49678 115.169,-17.9989 147.501,-31.329 32.1663,-13.3356 56.8303,-32.3327 73.8311,-57.1685 17.1672,-24.8359 25.6676,-52.0006 25.6676,-81.6661 0,-29.9982 -8.99947,-59.1647 -27.1648,-87.4994 -17.9989,-28.3347 -46.5,-50.8362 -85.3369,-67.6651 -38.8313,-16.8345 -91.8301,-25.1686 -158.83,-25.1686 -94.6691,0 -162.168,13.502 -202.336,40.6667 -40.1677,26.9984 -66.0016,65.4971 -77.33,115.335z"
   id="glyph604" />
   <glyph
   unicode="p"
   horiz-adv-x="666"
   d="M61.0001 -197.001l0 716.004 186.333 0 0 -76.5038c25.6676,32.3327 49.3335,54.1687 70.8313,65.5026 28.8338,15.3318 61.0001,23.0005 96.1718,23.0005 69.3286,0 122.832,-26.4994 160.832,-79.67 37.8333,-53.1651 56.8303,-119 56.8303,-197.168 0,-86.4958 -20.6661,-152.497 -61.9982,-197.999 -41.3321,-45.4964 -93.4991,-68.1642 -156.667,-68.1642 -30.6636,0 -58.4993,5.1679 -83.6679,15.4982 -25.3294,10.5022 -47.8308,25.834 -67.6651,46.3337l0 -246.834 -200.999 0zm199.502 454.836c0,-41.3377 8.66677,-71.8349 25.8284,-91.8356 17.1672,-20.0007 39.0032,-29.9982 65.3362,-29.9982 23.0005,0 42.3358,9.49851 58.0003,28.6674 15.4982,19.1634 23.3332,51.6624 23.3332,97.497 0,42.3358 -8.16772,73.3321 -24.3313,93.1664 -16.3354,19.8343 -36.0034,29.6655 -59.5029,29.6655 -25.3349,0 -46.3337,-9.99756 -63.3345,-29.9982 -16.8289,-20.0007 -25.3294,-52.3333 -25.3294,-97.1643z"
   id="glyph606" />
   <glyph
   unicode="m"
   horiz-adv-x="999"
   d="M61.9982 519.003l185.335 0 0 -75.5002c26.6657,31.6617 53.6697,54.1632 80.8344,67.4988 27.1648,13.3301 60.002,20.0007 98.5006,20.0007 41.3321,0 73.9975,-7.33598 98.1679,-22.0024 24.1649,-14.6664 43.8329,-36.4969 59.1647,-65.4971 31.1682,33.8298 59.4974,56.9966 85.165,69.1623 25.6676,12.1712 57.3349,18.3372 95.0018,18.3372 55.4995,0 98.8333,-16.5018 130.002,-49.6662 31.1627,-33.0036 46.8327,-84.8379 46.8327,-155.17l0 -326.166 -199.003 0 0 296.5c0,23.6659 -4.49696,41.1658 -13.6628,52.4997 -13.1693,17.9989 -29.8374,26.9984 -49.4998,26.9984 -23.3387,0 -42.1694,-8.50042 -56.5031,-25.4957 -14.1674,-17.0008 -21.3315,-44.3375 -21.3315,-81.838l0 -268.664 -199.003 0 0 285.998c0,22.8341 -1.33079,38.3378 -3.99792,46.5 -4.16981,13.0029 -11.5002,23.4995 -22.0024,31.5009 -10.3303,8.00138 -22.6622,11.9993 -36.6633,11.9993 -22.8341,0 -41.6704,-8.66677 -56.3368,-25.834 -14.6664,-17.3335 -21.9969,-45.6627 -21.9969,-85.165l0 -264.999 -199.003 0 0 519.003z"
   id="glyph608" />
   <glyph
   unicode="d"
   horiz-adv-x="666"
   d="M605.997 715.998l0 -715.998 -186.333 0 0 76.8309c-26.0003,-32.6654 -49.8325,-54.8285 -71.3303,-66.3288 -28.5011,-15.0047 -60.501,-22.5014 -95.6672,-22.5014 -70.4986,0 -124.501,26.8321 -161.835,80.6681 -37.1679,53.8305 -55.8322,119.333 -55.8322,196.164 0,86.1687 20.6661,151.998 61.8318,197.667 41.1658,45.6683 93.3327,68.5024 156.834,68.5024 31.0019,0 59.0039,-5.1679 84.1669,-15.5037 25.3349,-10.4966 47.67,-26.0003 67.1661,-46.8327l0 247.333 200.999 0zm-199.497 -454.498c0,40.8331 -8.66677,71.3303 -25.834,91.331 -17.1672,20.167 -38.9977,30.1701 -65.3362,30.1701 -22.9949,0 -42.3302,-9.67041 -57.9947,-29.0001 -15.5037,-19.1689 -23.3387,-51.5016 -23.3387,-97.0035 0,-42.4966 8.00138,-73.4984 24.1705,-93.3327 15.9972,-19.8343 35.9979,-29.6655 59.6638,-29.6655 25.3349,0 46.3337,10.0031 63.3345,29.8319 16.8345,20.0007 25.3349,52.4997 25.3349,97.6689z"
   id="glyph610" />
   <glyph
   unicode=" "
   horiz-adv-x="333"
   d=""
   id="glyph612" />
   <glyph
   unicode="r"
   horiz-adv-x="443"
   d="M61.9982 519.003l186.333 0 0 -84.6715c18.0045,36.8352 36.5025,62.1701 55.505,76.0047 19.1634,13.8291 42.6629,20.6661 70.665,20.6661 29.4992,0 61.6655,-9.16582 96.4989,-27.503l-61.6655 -141.164c-23.4995,9.83121 -42.1694,14.6664 -55.8322,14.6664 -26.0003,0 -46.3337,-10.8348 -60.6674,-32.3327 -20.4997,-30.3365 -30.8355,-87.1667 -30.8355,-170.336l0 -174.333 -200.001 0 0 519.003z"
   id="glyph614" />
   <glyph
   unicode="P"
   horiz-adv-x="722"
   d="M72.0013 715.998l367.997 0c80.169,0 140.171,-18.997 180.167,-57.163 39.835,-38.1659 59.8356,-92.501 59.8356,-163 0,-72.334 -21.836,-129.003 -65.3362,-169.67 -43.5002,-40.8331 -109.995,-61.1664 -199.33,-61.1664l-121.335 0 0 -264.999 -221.998 0 0 715.998zm221.998 -305.999l54.5014 0c43.0012,0 73.1657,7.50233 90.4993,22.3351 17.3335,14.8328 26.0003,33.8298 26.0003,56.9966 0,22.5014 -7.50233,41.504 -22.6678,57.1685 -14.9991,15.6645 -43.3339,23.4995 -84.9987,23.4995l-63.3345 0 0 -160z"
   id="glyph616" />
   <glyph
   unicode="o"
   horiz-adv-x="666"
   d="M35.9979 258.001c0,79.3317 26.6713,144.668 80.0027,195.998 53.3314,51.3352 125.333,77.0028 215.998,77.0028 103.835,0 182.169,-30.1701 235.167,-90.4993 42.5021,-48.6681 63.8336,-108.504 63.8336,-179.501 0,-80.0027 -26.333,-145.333 -79.1654,-196.502 -52.8324,-50.997 -126.004,-76.4982 -219.336,-76.4982 -83.1633,0 -150.496,21.1651 -201.831,63.6672 -63.1682,52.4997 -94.6691,121.335 -94.6691,206.333zm199.003 0.332698c0,-46.5 9.33217,-80.8344 27.9965,-103.003 18.6699,-22.1632 42.0031,-33.3307 70.3378,-33.3307 28.4955,0 51.8287,11.0012 70.1659,32.8317 18.3316,21.836 27.4974,57.0022 27.4974,105.332 0,45.1692 -9.16582,78.6719 -27.6638,100.835 -18.5035,22.0024 -41.3321,33.0036 -68.6688,33.0036 -28.8338,0 -52.666,-11.1675 -71.4967,-33.5026 -18.8362,-22.5014 -28.1684,-56.4976 -28.1684,-102.166z"
   id="glyph618" />
   <glyph
   unicode="z"
   horiz-adv-x="556"
   d="M37.9994 519l481 0 0 -116.499 -262.001 -266.504 278.001 0 0 -135.997 -516.997 0 0 129.169 249.663 253.834 -229.667 0 0 135.997z"
   id="glyph620" />
   <glyph
   unicode="i"
   horiz-adv-x="333"
   d="M66.9997 715.998l199.003 0 0 -134.998 -199.003 0 0 134.998zm0 -196.996l199.003 0 0 -519.003 -199.003 0 0 519.003z"
   id="glyph622" />
  </font>
</defs>
</svg>
